<?xml version="1.0" standalone="no"?>
<!DOCTYPE svg PUBLIC "-//W3C//DTD SVG 1.1//EN" "http://www.w3.org/Graphics/SVG/1.1/DTD/svg11.dtd" >
<svg xmlns="http://www.w3.org/2000/svg">
<metadata>
This is a custom SVG webfont generated by Font Squirrel.
Copyright   : Copyright  1992 2002 Adobe Systems Incorporated  All Rights Reserved  Copyright 1992 2002 The Monotype Corporation plc All Rights Reserved
Designer    : Unknown
Foundry URL : httpwwwadobecomtype
</metadata>
<defs>
<font id="SGGrotesqueRegular" horiz-adv-x="1748" >
<font-face units-per-em="2048" ascent="1477" descent="-571" />
<missing-glyph horiz-adv-x="491" />
<glyph unicode=" "  horiz-adv-x="491" />
<glyph unicode="&#x09;" horiz-adv-x="491" />
<glyph unicode="&#xa0;" horiz-adv-x="491" />
<glyph unicode="!" horiz-adv-x="555" d="M176 0v258h199v-258h-199zM180 1483h201l-35 -1059h-141z" />
<glyph unicode="&#x22;" horiz-adv-x="980" d="M164 1231v246h201v-246l-62 -285h-78zM616 1231v246h201v-246l-61 -285h-78z" />
<glyph unicode="#" horiz-adv-x="1368" d="M86 350v144h219l72 350h-291v143h320l86 397h143l-86 -397h401l84 397h144l-86 -397h190v-143h-217l-74 -350h291v-144h-317l-84 -395h-146l86 395h-403l-82 -395h-143l81 395h-188zM449 496h401l72 348h-402z" />
<glyph unicode="$" horiz-adv-x="1216" d="M113 375h192q23 -219 246 -252v524q-72 29 -110 47.5t-97 55t-91 72.5t-56.5 92.5t-24.5 121.5q0 223 207 318q63 29 174 41v86h137v-86q182 -31 277.5 -113t111.5 -268h-182q-12 102 -57 152.5t-150 70.5v-440q90 -43 144.5 -73t126 -85t107.5 -126t36 -159 q0 -111 -58.5 -199.5t-162.5 -140.5q-70 -33 -193 -49v-198h-137v200q-121 14 -194.5 45t-135.5 94q-51 55 -73.5 110t-36.5 159zM350 1073q0 -68 43 -115t160 -104v387q-94 -10 -148.5 -54t-54.5 -114zM690 119q106 14 167 72.5t61 146.5q0 76 -49.5 130t-178.5 120v-469z " />
<glyph unicode="%" d="M145 1124q0 174 81 281.5t210 107.5q127 0 207 -108.5t80 -280.5q0 -170 -80 -279.5t-205 -109.5q-131 0 -212 106.5t-81 282.5zM303 1141q0 -289 131 -289t131 268q0 276 -129 277q-63 0 -98 -66.5t-35 -189.5zM438 -86l770 1604h103l-766 -1604h-107zM1026 311 q0 172 81 277.5t212 105.5q121 0 203 -113.5t82 -281.5q0 -164 -82 -273.5t-203 -109.5q-133 0 -213 107.5t-80 287.5zM1180 330q0 -299 133 -299q63 0 99 70.5t36 199.5q0 131 -35 204t-96 73q-66 0 -101.5 -64.5t-35.5 -183.5z" />
<glyph unicode="&#x26;" horiz-adv-x="1323" d="M115 393q0 76 28.5 144.5t65.5 111.5t98.5 86t95 61.5t91.5 45.5q-66 164 -66 260q0 137 69.5 223t182.5 86q102 0 172 -79t70 -197q0 -117 -88 -224q-53 -61 -140 -112q139 -260 240 -410q47 80 67.5 139.5t34.5 157.5l129 -82q-35 -197 -139 -336q106 -125 193 -125 q20 0 57 7l16 -160q-66 -14 -100 -15q-78 0 -138.5 35t-138.5 125q-164 -164 -376 -164q-174 0 -299 124t-125 298zM279 395q0 -111 85 -190.5t203 -79.5q129 0 260 123q-117 168 -221 362l-55 103q-66 -37 -100.5 -59.5t-81.5 -62.5t-68.5 -88.5t-21.5 -107.5zM571 1139 q0 -78 70 -226q139 90 139 213q0 59 -28.5 99.5t-71.5 40.5q-47 0 -78 -35t-31 -92z" />
<glyph unicode="'" horiz-adv-x="555" d="M178 1231v246h201v-246l-62 -285h-77z" />
<glyph unicode="(" horiz-adv-x="768" d="M152 580q0 276 108 544q100 248 358 404v-185q-70 -68 -102.5 -113.5t-64.5 -121.5q-106 -238 -107 -545q0 -303 109 -545q33 -74 64.5 -116.5t98.5 -108.5v-186q-143 92 -221 186q-243 298 -243 787z" />
<glyph unicode=")" horiz-adv-x="768" d="M150 -209q70 68 102.5 114t64.5 122q106 238 107 544q0 303 -109 545q-33 74 -64.5 117t-98.5 108v187q143 -92 221 -187q244 -297 243 -786q0 -276 -108 -545q-100 -248 -358 -403v184z" />
<glyph unicode="*" horiz-adv-x="980" d="M123 1079v164l317 -53l-204 237l143 86l108 -294l113 292l143 -81l-213 -242l330 57v-168l-330 60l215 -258l-147 -82l-113 309l-108 -313l-146 86l209 258z" />
<glyph unicode="+" horiz-adv-x="1366" d="M135 588v157h467v469h158v-469h471v-157h-471v-467h-158v467h-467z" />
<glyph unicode="," horiz-adv-x="555" d="M176 -248q80 92 80 234v14h-76v262h201v-272q0 -213 -166 -318z" />
<glyph unicode="-" horiz-adv-x="768" d="M102 424v168h566v-168h-566z" />
<glyph unicode="." horiz-adv-x="555" d="M178 0v262h201v-262h-201z" />
<glyph unicode="/" horiz-adv-x="661" d="M72 -348l381 1843h139l-381 -1843h-139z" />
<glyph unicode="0" horiz-adv-x="1118" d="M121 715q0 305 115.5 502.5t332.5 197.5q49 0 99.5 -14.5t112 -60.5t107.5 -119.5t77.5 -203.5t31.5 -298q0 -150 -21.5 -271.5t-52 -198.5t-75.5 -133.5t-84 -84t-85 -43t-69.5 -18.5t-48.5 -3q-29 0 -59.5 5t-75.5 23.5t-85 49.5t-81 88t-70.5 133t-49 192t-19.5 257z M311 707q0 -281 65.5 -437.5t180.5 -156.5q248 0 248 620q0 254 -62.5 395.5t-175.5 141.5q-121 0 -188.5 -148.5t-67.5 -414.5z" />
<glyph unicode="1" horiz-adv-x="1118" d="M244 936v168q170 80 350 309h123v-1413h-185v1118q-153 -125 -288 -182z" />
<glyph unicode="2" horiz-adv-x="1118" d="M131 0q4 84 25.5 154.5t47 119t80 105.5t93.5 90l119 98q119 96 170 144.5t93 123t42 160.5q0 127 -61.5 199t-172.5 72q-106 0 -170.5 -66.5t-64.5 -177.5q0 -82 59 -199l-137 -75q-86 147 -86 276q0 176 114.5 284.5t297 108.5t300 -114.5t117.5 -292.5 q0 -98 -26.5 -177t-86 -145.5t-104.5 -102.5t-133 -100q-164 -115 -216 -168t-103 -141h653v-176h-850z" />
<glyph unicode="3" horiz-adv-x="1118" d="M139 330q0 59 37 182l150 -66q-18 -61 -19 -98q0 -106 67.5 -168.5t182.5 -62.5q111 0 178.5 74.5t67.5 197.5q0 84 -31 143.5t-68.5 88t-99 44t-96.5 17.5t-86 2v145q22 -3 47.5 -3t54.5 3q59 6 113.5 20.5t93.5 65t39 129.5q0 106 -57.5 165t-161.5 59 q-78 0 -136.5 -44t-58.5 -106q0 -27 13 -69l-154 -68q-25 80 -25 121q0 133 118 225t286 92q158 0 264.5 -103.5t106.5 -254.5q0 -72 -22.5 -127t-64.5 -92t-72 -55.5t-73 -36.5q274 -88 275 -357q0 -182 -129 -302t-328 -120q-178 0 -295 101.5t-117 257.5z" />
<glyph unicode="4" horiz-adv-x="1118" d="M127 326v235l526 854h156v-936h168v-153h-168v-326h-180v326h-502zM246 479h383v621z" />
<glyph unicode="5" horiz-adv-x="1118" d="M156 350l161 53q4 -43 8.5 -69.5t19.5 -71.5t38 -71.5t64.5 -47t97.5 -20.5q117 0 184.5 94t67.5 256q0 152 -61.5 237t-172.5 85q-74 0 -124 -39t-95 -131l-145 51l55 713h657v-177h-522l-27 -354q117 94 248 94q168 0 273.5 -129t105.5 -334q0 -236 -120.5 -380 t-319.5 -144q-172 0 -274.5 101.5t-118.5 283.5z" />
<glyph unicode="6" horiz-adv-x="1118" d="M133 662q0 756 461 755q80 0 142.5 -23.5t97 -51t63.5 -78t38 -77t23 -73.5l-170 -49q-55 193 -210 192q-76 0 -127.5 -40.5t-75 -118.5t-31.5 -143.5t-12 -161.5q117 145 287 145q162 0 266 -127t104 -328q0 -242 -109.5 -380t-301.5 -138q-158 0 -271 113 q-96 94 -135 224.5t-39 359.5zM346 473q0 -166 60.5 -263t164.5 -97q102 0 163 92t61 248q0 160 -55.5 249t-151.5 89q-109 0 -175.5 -88.5t-66.5 -229.5z" />
<glyph unicode="7" horiz-adv-x="1118" d="M98 1237v162h828v-152q-84 -145 -148 -305q-90 -227 -141 -412.5t-63.5 -278.5t-26.5 -251h-195q25 190 46.5 292.5t66.5 242.5q111 358 293 702h-660z" />
<glyph unicode="8" horiz-adv-x="1118" d="M115 371q0 182 139 291q61 49 176 77q-49 20 -81 38t-84 56.5t-79.5 98t-27.5 135.5q0 152 116.5 252t292.5 100q170 0 286 -100t116 -250q0 -74 -30 -134.5t-83 -100t-86 -57t-80 -38.5q121 -29 180 -75q133 -104 134 -304q0 -172 -128 -281.5t-329 -109.5 q-188 0 -310 114t-122 288zM313 393q0 -131 66.5 -207.5t179.5 -76.5t180.5 76.5t67.5 203.5q0 121 -69.5 197t-182.5 76q-102 0 -172 -78t-70 -191zM346 1042q0 -96 60.5 -162.5t148.5 -66.5q96 0 157.5 64.5t61.5 166.5q0 100 -59.5 165t-151.5 65t-154.5 -66t-62.5 -166z " />
<glyph unicode="9" horiz-adv-x="1118" d="M123 932q0 211 118.5 347t301.5 136q51 0 102 -14.5t114.5 -58.5t112 -115.5t81 -201.5t32.5 -298q0 -242 -44 -395.5t-140 -251.5q-111 -113 -297 -113q-74 0 -134.5 22.5t-96 52.5t-65.5 77t-41 74.5t-24 68.5l179 72q33 -113 77.5 -156t128.5 -43q51 0 92 21.5 t66 62.5t41 82t24.5 98.5t11.5 90t5 79.5q-137 -129 -283 -129q-158 0 -260 137.5t-102 354.5zM322 942q0 -166 58 -258t163 -92q100 0 162.5 91t62.5 239q0 150 -65.5 249t-164 99t-157.5 -90.5t-59 -237.5z" />
<glyph unicode=":" horiz-adv-x="555" d="M176 0v260h203v-260h-203zM176 752v262h203v-262h-203z" />
<glyph unicode=";" horiz-adv-x="555" d="M174 -248q49 57 65.5 106.5t18.5 141.5h-78v262h203v-227q0 -180 -92 -295q-25 -31 -76 -68zM180 756v262h201v-262h-201z" />
<glyph unicode="&#x3c;" horiz-adv-x="1366" d="M135 596v143l1094 459v-170l-881 -360l881 -361v-170z" />
<glyph unicode="=" horiz-adv-x="1366" d="M135 354v158h1096v-158h-1096zM135 827v158h1096v-158h-1096z" />
<glyph unicode="&#x3e;" horiz-adv-x="1366" d="M135 137v170l883 359l-883 360v172l1094 -461v-141z" />
<glyph unicode="?" horiz-adv-x="1087" d="M133 1116q8 113 34 179.5t83 123.5q113 113 303 113q170 0 286.5 -116t116.5 -283q0 -113 -59 -213.5t-192 -214.5q-76 -66 -97.5 -112t-21.5 -142h-160q2 158 35 224t123 150t134 150.5t44 157.5q0 96 -65.5 163.5t-159.5 67.5q-229 0 -238 -336zM403 0v256h201v-256 h-201z" />
<glyph unicode="@" horiz-adv-x="2078" d="M92 469q0 127 30 259t103.5 271.5t182 247t283.5 177t390 69.5q213 0 383 -71.5t270.5 -186.5t151.5 -245t51 -261q0 -158 -57 -299t-145 -233.5t-192.5 -146.5t-201.5 -54q-102 0 -146 37t-52 131q-143 -166 -303 -166q-158 0 -262.5 128t-104.5 325q0 143 67.5 288.5 t189.5 244.5t261 99q188 0 303 -184l33 156h180l-159 -742q-14 -68 -15 -86q0 -27 21.5 -46t50.5 -19q41 0 103.5 39t126 106.5t108.5 178t45 231.5q0 272 -204 451.5t-513 179.5q-358 0 -594.5 -245t-236.5 -618q0 -365 228 -566.5t638 -201.5q262 0 437 88.5t261 212.5 h183q-16 -31 -34 -59.5t-93.5 -107t-164.5 -134t-248 -101.5t-343 -46q-473 0 -742.5 239.5t-269.5 659.5zM657 434q0 -129 61.5 -209t160.5 -80q127 0 242.5 150.5t115.5 349.5q0 133 -63.5 212t-169.5 79q-133 0 -240 -154.5t-107 -347.5z" />
<glyph unicode="A" d="M139 0l647 1477h181l645 -1477h-205l-158 356h-745l-158 -356h-207zM582 539h587l-292 673z" />
<glyph unicode="B" horiz-adv-x="1429" d="M207 1477h588q205 0 332.5 -95.5t127.5 -248.5q0 -240 -301 -340q106 -27 168 -61t109 -91q76 -90 76 -223q0 -186 -125 -302t-328 -116h-647v1477zM410 172h340q166 0 256 66.5t90 189.5q0 135 -84 206t-246 71h-356v-533zM410 879h319q311 0 311 223q0 205 -280 205 h-350v-428z" />
<glyph unicode="C" horiz-adv-x="1536" d="M141 694q0 365 191.5 591t501.5 226q117 0 215 -32.5t155.5 -76.5t101.5 -100.5t60 -93.5t25 -65l-156 -133q-16 47 -28.5 75.5t-46.5 81t-70.5 82t-101 54t-142.5 24.5q-219 0 -353.5 -165t-134.5 -431q0 -158 40 -275.5t94.5 -177t127 -96.5t120.5 -45t94 -8 q182 0 315 129q57 55 108 160l140 -146q-27 -45 -46.5 -74.5t-69.5 -82t-104.5 -84t-144.5 -57t-194 -25.5q-133 0 -243 34.5t-180.5 90t-123.5 130.5t-81 143.5t-44.5 144t-20.5 120.5t-4 82z" />
<glyph unicode="D" horiz-adv-x="1642" d="M244 0v1477h551q301 0 465 -164q221 -215 221 -574q0 -344 -176.5 -541.5t-485.5 -197.5h-575zM446 182h367q213 0 333 145.5t120 401.5q0 311 -160 461q-109 106 -309 106h-351v-1114z" />
<glyph unicode="E" horiz-adv-x="1216" d="M186 0v1477h920l-55 -174h-664v-453h608v-176h-608v-498h666l59 -176h-926z" />
<glyph unicode="F" horiz-adv-x="1216" d="M209 0v1477h921l-79 -183h-639v-452h546v-183h-546v-659h-203z" />
<glyph unicode="G" horiz-adv-x="1642" d="M172 686q0 383 196.5 605t536.5 222q162 0 295 -74.5t215 -189.5l-119 -164q-154 244 -401 244q-238 0 -373 -167t-135 -464q0 -268 134 -418.5t372 -150.5q98 0 179 33t118 65.5t80 81.5v240h-576v182h779v-485q-76 -100 -138 -146q-197 -152 -446 -151 q-326 0 -521.5 200.5t-195.5 536.5z" />
<glyph unicode="H" horiz-adv-x="1536" d="M199 0v1477h202v-627h736v627h202v-1477h-202v670h-736v-670h-202z" />
<glyph unicode="I" horiz-adv-x="661" d="M229 0v1477h203v-1477h-203z" />
<glyph unicode="J" horiz-adv-x="1214" d="M135 358q0 72 6 152l199 127q-23 -154 -23 -221q0 -133 62.5 -208t173.5 -75q106 0 162.5 69.5t56.5 200.5v1074h203v-1106q0 -195 -112.5 -307.5t-307.5 -112.5q-106 0 -187 34.5t-124 83t-68.5 111t-33 104t-7.5 74.5z" />
<glyph unicode="K" horiz-adv-x="1429" d="M211 0v1477h203v-676l653 676h262l-522 -537l536 -940h-221l-454 797l-254 -265v-532h-203z" />
<glyph unicode="L" horiz-adv-x="1216" d="M205 0v1477h203v-1301h706v-176h-909z" />
<glyph unicode="M" d="M193 0v1477h315l369 -1203l366 1203h313v-1477h-182v1313l-399 -1313h-199l-401 1313v-1313h-182z" />
<glyph unicode="N" horiz-adv-x="1536" d="M205 0v1477h272l651 -1151v1151h203v-1477h-241l-684 1204v-1204h-201z" />
<glyph unicode="O" horiz-adv-x="1642" d="M121 739q0 356 194.5 564t511.5 208q311 0 504 -212t193 -556q0 -193 -54.5 -341t-132 -230t-180 -135t-183.5 -69.5t-155 -16.5q-322 0 -510 211.5t-188 576.5zM336 725q0 -264 135 -430t350 -166q223 0 355.5 168t132.5 448q0 266 -131 426t-351 160 q-227 0 -359 -162.5t-132 -443.5z" />
<glyph unicode="P" horiz-adv-x="1429" d="M215 0v1477h606q211 0 343 -124t132 -321q0 -199 -139 -316.5t-375 -117.5h-364v-598h-203zM416 774h215q68 0 107.5 2t98 9.5t93.5 23.5t70.5 44t52 73t16.5 106q0 266 -324 266h-329v-524z" />
<glyph unicode="Q" horiz-adv-x="1642" d="M121 733q0 170 44 306.5t113.5 222.5t164 144t186.5 81.5t188 23.5q311 0 508 -213t197 -548q0 -221 -74 -394.5t-209 -269.5q-53 -39 -139 -78q61 -86 110.5 -132t108.5 -75l-158 -73q-74 41 -115.5 83t-115.5 146q-6 -2 -49 -6q-12 0 -31 -1t-25 -1q-326 0 -515 209.5 t-189 574.5zM338 725q0 -92 20.5 -181t69.5 -187.5t155.5 -162t256.5 -67.5q-84 125 -181 195l175 49q80 -63 174 -207q41 18 81.5 50t95 96.5t88.5 178t34 256.5q0 264 -132.5 424t-351.5 160q-223 0 -354 -162.5t-131 -441.5z" />
<glyph unicode="R" horiz-adv-x="1429" d="M184 0v1477h627q201 0 331 -114t130 -290q0 -156 -77 -245t-234 -134l368 -694h-217l-356 664h-369v-664h-203zM387 838h387q139 0 212 60t73 175q0 231 -301 232h-371v-467z" />
<glyph unicode="S" horiz-adv-x="1429" d="M131 340l170 141q20 -92 51 -149.5t88 -102.5q119 -100 312 -100q137 0 233 80t96 194q0 109 -84 171.5t-292 111.5q-172 41 -238 69.5t-160 104.5q-113 119 -112 260q0 176 149.5 286t390.5 110q111 0 200 -27t139 -58.5t94 -85t56.5 -78t30.5 -65.5l-151 -141 q-12 39 -22.5 63.5t-40 68.5t-66.5 69.5t-104.5 47t-151.5 21.5q-145 0 -230.5 -56t-85.5 -155q0 -49 32 -87t97.5 -65.5t107.5 -41t120 -31.5q86 -20 144.5 -36.5t140 -54.5t131 -85t86 -124t36.5 -173q0 -213 -159.5 -343t-423.5 -130q-317 0 -484 194q-59 72 -100 197z " />
<glyph unicode="T" horiz-adv-x="1429" d="M115 1298v179h1200v-179h-500v-1298h-201v1298h-499z" />
<glyph unicode="U" horiz-adv-x="1536" d="M205 444v1033h203v-1014q0 -158 95 -242t275 -84q80 0 155 25.5t118 70.5q78 78 77 273v971h203v-1002q0 -246 -125 -373q-147 -152 -440 -151q-262 0 -411.5 131t-149.5 362z" />
<glyph unicode="V" horiz-adv-x="1536" d="M129 1477h213l436 -1166l420 1166h209l-533 -1477h-186z" />
<glyph unicode="W" horiz-adv-x="2197" d="M121 1477h198l345 -1198l329 1198h209l324 -1201l354 1201h197l-432 -1477h-218l-329 1214l-334 -1214h-215z" />
<glyph unicode="X" horiz-adv-x="1429" d="M98 0l488 758l-486 719h244l358 -535l347 535h231l-459 -713l510 -764h-241l-388 580l-368 -580h-236z" />
<glyph unicode="Y" horiz-adv-x="1429" d="M84 1477h227l396 -666l413 666h228l-539 -871v-606h-203v598z" />
<glyph unicode="Z" horiz-adv-x="1323" d="M104 0v113l832 1185h-756v179h1039v-115l-832 -1184h827v-178h-1110z" />
<glyph unicode="[" horiz-adv-x="768" d="M125 -340v1819h518v-115h-330v-1589h330v-115h-518z" />
<glyph unicode="\" horiz-adv-x="661" d="M70 1495h139l381 -1843h-139z" />
<glyph unicode="]" horiz-adv-x="768" d="M125 -225h330v1591h-330v115h518v-1821h-518v115z" />
<glyph unicode="^" horiz-adv-x="960" d="M53 690l355 801h145l354 -801h-182l-246 598l-241 -598h-185z" />
<glyph unicode="_" horiz-adv-x="1024" d="M0 -154h1024v-102h-1024v102z" />
<glyph unicode="`" horiz-adv-x="681" d="M72 1399h239l135 -279h-145z" />
<glyph unicode="a" horiz-adv-x="1124" d="M92 311q0 131 96 232q106 113 349 135q115 12 150.5 26.5t86.5 65.5q-2 94 -43 127t-158 33q-121 0 -189.5 -39t-104.5 -129l-146 80q14 37 27.5 62.5t46.5 62.5t75 59.5t115.5 39.5t167.5 17q111 0 187.5 -23.5t114.5 -54t58.5 -81t22.5 -79t2 -73.5v-516 q0 -98 12.5 -119.5t71.5 -23.5v-121q-84 -25 -112 -25q-66 0 -101 36t-42 75t-7 96q-45 -55 -81 -91t-112.5 -76t-160.5 -40q-139 0 -232.5 98.5t-93.5 245.5zM279 309q0 -86 55 -141t143 -55q113 0 203 86q53 51 73.5 109.5t20.5 156.5v170q-57 -43 -92 -57.5t-125 -30.5 q-162 -27 -225 -103q-53 -59 -53 -135z" />
<glyph unicode="b" horiz-adv-x="1251" d="M209 1477h180v-680q25 55 45.5 92t59 85t97 72.5t134.5 24.5q178 0 282.5 -148.5t104.5 -402.5q0 -246 -105.5 -395.5t-275.5 -149.5q-63 0 -116.5 19.5t-87 44t-65.5 66.5t-45 68l-34 67v-240h-174v1477zM385 526q0 -225 107 -329q84 -80 188 -80q117 0 182.5 101 t65.5 282q0 166 -30 255t-97 136q-59 37 -121 37q-137 -4 -216 -111t-79 -291z" />
<glyph unicode="c" horiz-adv-x="1122" d="M111 532q0 238 138 394.5t349 156.5q98 0 176 -32.5t122 -84t67.5 -96.5t31.5 -86l-147 -69q-61 217 -256 217q-141 0 -218 -105.5t-77 -298.5q0 -225 102 -327q86 -90 209 -90q201 0 271 221l133 -72q-6 -35 -30 -79t-70 -95t-129 -85t-187 -34q-213 0 -349 158.5 t-136 406.5z" />
<glyph unicode="d" horiz-adv-x="1251" d="M139 526q0 244 109.5 396.5t283.5 152.5q74 0 131.5 -23.5t96.5 -69.5t61.5 -83t48.5 -96v674h179v-1477h-177v246q-6 -12 -27.5 -52t-31.5 -56.5t-33.5 -49.5t-44 -48t-51.5 -34.5t-67.5 -28t-81.5 -8.5q-180 0 -288 151.5t-108 405.5zM324 500q0 -178 67.5 -278.5 t186.5 -100.5q113 0 190 82q102 96 102 325q0 113 -29.5 196t-66.5 121t-86 59.5t-69.5 23.5t-38.5 2q-256 -12 -256 -430z" />
<glyph unicode="e" horiz-adv-x="1120" d="M100 524q0 246 132.5 400.5t342.5 154.5q193 0 320 -142t127 -357q0 -23 -4 -113h-733q6 -100 35.5 -173t64.5 -106.5t82 -53t68.5 -21.5t46.5 -2q72 0 125 24.5t84.5 68.5t45 70.5t27.5 65.5l144 -70q-49 -109 -111 -170q-137 -133 -330 -133q-209 0 -338 154.5 t-129 402.5zM291 610h547q-4 92 -33 159t-60.5 97.5t-75.5 48t-63.5 19.5t-38.5 2q-125 0 -196.5 -85t-79.5 -241z" />
<glyph unicode="f" horiz-adv-x="694" d="M45 901v152h193v198q0 135 55 186.5t201 51.5q57 0 143 -12v-148q-45 4 -96 4q-72 0 -98.5 -29.5t-26.5 -105.5v-145h225v-152h-225v-901h-178v901h-193z" />
<glyph unicode="g" horiz-adv-x="1251" d="M152 520q0 250 109.5 403.5t289.5 153.5q74 0 131 -23.5t98 -72.5t59.5 -80t47.5 -92v244h174v-1022q0 -209 -120 -323t-339 -114q-180 0 -292.5 75t-112.5 196q0 37 16 72l166 -74q-2 -59 59.5 -90t163.5 -31q131 0 206 59.5t75 163.5v248q-129 -246 -340 -246 q-174 0 -282.5 154.5t-108.5 398.5zM342 549q0 -262 94 -359q66 -70 174 -69q129 0 202 99t73 276q0 205 -79 322.5t-214 117.5q-119 0 -184.5 -101.5t-65.5 -285.5z" />
<glyph unicode="h" horiz-adv-x="1249" d="M205 1477h178v-605q45 57 85 96.5t109.5 75t145.5 35.5q150 0 235.5 -101t85.5 -278v-700h-178v680q0 113 -60.5 180.5t-162.5 67.5q-119 0 -189.5 -76t-70.5 -203v-649h-178v1477z" />
<glyph unicode="i" horiz-adv-x="563" d="M193 0v1053h178v-1053h-178zM193 1206v230h178v-230h-178z" />
<glyph unicode="j" horiz-adv-x="569" d="M61 -256q25 -2 47 -2q60 0 83 17q32 24 32 108v1186h180v-1217q0 -246 -253 -246q-33 0 -89 9v145zM223 1206v232h180v-232h-180z" />
<glyph unicode="k" horiz-adv-x="1040" d="M156 0v1477h178v-873l371 449h198l-334 -385l418 -668h-190l-346 530l-119 -137v-393h-176z" />
<glyph unicode="l" horiz-adv-x="561" d="M193 0v1477h178v-1477h-178z" />
<glyph unicode="m" horiz-adv-x="1804" d="M190 0v1053h177v-195q123 221 309 221q111 0 179.5 -56t115.5 -173q33 51 53 77.5t62 68.5t95.5 62.5t116.5 20.5q137 0 226.5 -97t89.5 -245v-737h-178v680q0 117 -55.5 183.5t-151.5 66.5q-238 0 -238 -307v-623h-178v637q0 152 -50 223.5t-156.5 71.5t-173 -79 t-66.5 -200v-653h-177z" />
<glyph unicode="n" horiz-adv-x="1249" d="M205 0v1053h178v-189q147 215 344 215q143 0 231.5 -96t88.5 -252v-731h-179v678q0 119 -58 184.5t-161 65.5q-115 0 -190.5 -74t-75.5 -188v-666h-178z" />
<glyph unicode="o" horiz-adv-x="1253" d="M137 530q0 242 136.5 395.5t349.5 153.5q217 0 355 -151.5t138 -390.5q0 -260 -135 -415t-360 -155q-215 0 -349.5 156.5t-134.5 406.5zM324 520q0 -190 81.5 -294.5t231.5 -104.5q137 0 215 107.5t78 295.5q0 205 -85 305.5t-224.5 100.5t-218 -106.5t-78.5 -303.5z" />
<glyph unicode="p" horiz-adv-x="1251" d="M207 -408v1461h176v-248q29 59 51.5 97t63.5 83t99 66.5t134 21.5q174 0 279.5 -148.5t105.5 -394.5q0 -254 -109.5 -406.5t-289.5 -152.5q-70 0 -122 20.5t-92 66.5t-62.5 82t-55.5 102v-650h-178zM383 518q0 -182 81 -289.5t214 -107.5q92 0 153 65q96 96 97 357 q0 379 -250 379q-137 0 -216 -107t-79 -297z" />
<glyph unicode="q" horiz-adv-x="1251" d="M141 520q0 254 106.5 403.5t287.5 149.5q80 0 140 -26.5t100 -76.5t58.5 -84t38.5 -87v254h177v-1461h-179v660q-98 -283 -331 -283q-174 0 -286 154.5t-112 396.5zM324 539q0 -291 137 -379q59 -37 123 -37q139 8 215 109q75 102 75 280q0 86 -15 155.5t-37.5 111.5 t-55.5 74t-59.5 46t-59.5 22.5t-46 9.5t-26 1q-117 0 -184 -105.5t-67 -287.5z" />
<glyph unicode="r" horiz-adv-x="770" d="M180 0v1053h174v-195q31 82 104.5 151.5t178.5 69.5q39 0 76 -6v-188q-55 12 -101 12q-131 0 -193.5 -86t-62.5 -197v-614h-176z" />
<glyph unicode="s" horiz-adv-x="1122" d="M123 264l143 86q25 -240 303 -239q121 0 187.5 44t66.5 113q0 74 -67.5 115t-164.5 59.5t-194.5 45t-165 97t-67.5 189.5q0 137 107.5 223t287.5 86q166 0 275.5 -79.5t134.5 -204.5l-125 -84q-55 221 -301 221q-98 0 -156.5 -41t-58.5 -104q0 -70 69.5 -108t168 -57.5 t196.5 -46t167.5 -97t69.5 -185.5q0 -139 -110.5 -235.5t-333.5 -96.5q-174 0 -278.5 71.5t-153.5 227.5z" />
<glyph unicode="t" horiz-adv-x="696" d="M39 903v150h188v272l179 100v-372h225v-150h-225v-629q0 -84 20 -114.5t74 -30.5q37 0 118 21v-150q-119 -25 -163 -25q-123 0 -175.5 44t-52.5 149v735h-188z" />
<glyph unicode="u" horiz-adv-x="1249" d="M203 311v742h178v-664q0 -266 211 -266q115 0 195.5 83t80.5 200v647h179v-1053h-183v186q-141 -221 -332 -221q-147 0 -238 95t-91 251z" />
<glyph unicode="v" horiz-adv-x="1013" d="M80 1053h172l258 -826l256 826h170l-328 -1053h-190z" />
<glyph unicode="w" horiz-adv-x="1591" d="M78 1053h174l231 -850l230 850h166l237 -846l227 846h173l-318 -1053h-164l-241 852l-232 -852h-168z" />
<glyph unicode="x" horiz-adv-x="1013" d="M78 0l325 555l-309 498h189l213 -342l200 342h187l-291 -496l346 -557h-190l-248 399l-234 -399h-188z" />
<glyph unicode="y" horiz-adv-x="1013" d="M78 1053h168l274 -824l246 824h170l-356 -1153q-14 -49 -22.5 -74t-25 -65t-31 -58t-39 -44t-53 -38t-69.5 -20.5t-92 -8.5q-43 0 -123 9v149q76 -12 119 -12q84 0 119.5 42t82.5 195z" />
<glyph unicode="z" horiz-adv-x="1009" d="M129 0v135l504 772h-463v146h696v-109l-524 -801h539v-143h-752z" />
<glyph unicode="{" horiz-adv-x="684" d="M53 649q59 2 100.5 24.5t62 52.5t30.5 89.5t12 100t2 120.5q0 86 1 125t7 103.5t18.5 94.5t35 69.5t56.5 56t83 30t117 13.5h55v-156h-31q-106 0 -139 -39t-33 -168v-145q0 -152 -25.5 -242t-66.5 -132t-117 -79q117 -49 163 -148.5t46 -303.5v-146q0 -129 33 -168 t139 -39h31v-155h-55q-68 0 -117 13t-83 29.5t-56.5 56.5t-35 69.5t-18.5 94t-7 103.5t-1 125q0 80 -2 121t-12 100.5t-30.5 89t-61.5 52t-101 24.5v164z" />
<glyph unicode="|" horiz-adv-x="1118" d="M479 -512v2048h160v-2048h-160z" />
<glyph unicode="}" horiz-adv-x="684" d="M51 -238h31q106 0 139 39t33 168v146q0 205 46 304t163 148q-74 35 -114 74t-67.5 132t-27.5 247v145q0 129 -33 168t-139 39h-31v156h55q68 0 117 -13.5t83 -30t56.5 -56t35 -69.5t18.5 -94.5t7 -103.5t1 -125q0 -80 2 -121t12.5 -100t30.5 -89t61 -52.5t101 -24.5v-164 q-59 -2 -100.5 -24.5t-61.5 -52t-30.5 -89t-12.5 -100.5t-2 -121q0 -86 -1 -125t-7 -103.5t-18.5 -94t-35 -69.5t-56.5 -56.5t-83 -29.5t-117 -13h-55v155z" />
<glyph unicode="~" horiz-adv-x="1343" d="M127 582v168q154 129 303 129q96 0 293 -95q131 -66 203 -65q127 0 291 143v-170q-154 -131 -293 -131q-61 0 -121 19.5t-187 81.5q-131 61 -194 61q-131 0 -295 -141z" />
<glyph unicode="&#xa1;" horiz-adv-x="555" d="M178 -340l27 1059h141l31 -1059h-199zM178 885v260h199v-260h-199z" />
<glyph unicode="&#xa2;" horiz-adv-x="1087" d="M111 512q0 229 132 378.5t337 149.5q39 0 73 -6l135 379h156l-153 -428q74 -43 115.5 -108.5t54.5 -122.5l-142 -68q-27 100 -82 152l-256 -709q51 -23 107 -23q195 0 260 213l129 -69q-6 -33 -28.5 -76t-66.5 -91t-124 -81t-180 -33q-80 0 -146 27l-141 -393h-152 l166 460q-194 148 -194 449zM289 508q0 -193 73 -283l240 668q-10 2 -29 2q-137 0 -210.5 -100.5t-73.5 -286.5z" />
<glyph unicode="&#xa3;" horiz-adv-x="1323" d="M72 154q0 88 71.5 148t175.5 60q61 0 162 -32q6 59 6 80q0 106 -41 247h-305v154h273q-25 139 -25 213q0 174 107.5 286.5t273.5 112.5q115 0 202 -55t128 -156q23 -55 28 -159l-196 20q-4 94 -49 144.5t-123 50.5q-82 0 -129 -60.5t-47 -165.5q0 -70 30 -231h306v-154 h-275q10 -80 10 -129q0 -143 -51 -254q133 -70 196.5 -92t127.5 -22q78 0 117.5 42t37.5 117h170q-8 -176 -94 -264q-90 -90 -248 -90q-98 0 -184 38t-199 114q-104 -152 -258 -152q-84 0 -141 54.5t-57 134.5zM176 152q0 -33 27.5 -55.5t68.5 -22.5q82 0 154 114 q-86 53 -143 54q-43 0 -75 -27.5t-32 -62.5z" />
<glyph unicode="&#xa4;" horiz-adv-x="1366" d="M182 274l127 127q-82 115 -82 264.5t84 266.5l-129 129l105 106l131 -129q119 84 266 84q139 0 262 -86l131 131l105 -106l-131 -129q88 -115 88 -264.5t-86 -264.5l129 -129l-105 -106l-131 131q-117 -88 -264 -88q-150 0 -266 84l-127 -127zM377 666q0 -127 89 -217.5 t216 -90.5t217 91.5t90 218.5t-89 216t-216 89t-217 -90t-90 -217z" />
<glyph unicode="&#xa5;" horiz-adv-x="1429" d="M84 1477h225l398 -584l413 584h228l-463 -668h426v-127h-504v-182h504v-127h-504v-373h-201v373h-487v127h487v182h-487v127h411z" />
<glyph unicode="&#xa6;" horiz-adv-x="1118" d="M479 -358v716h160v-716h-160zM479 666v716h160v-716h-160z" />
<glyph unicode="&#xa7;" horiz-adv-x="980" d="M96 559q0 74 22.5 135.5t67.5 107.5t70 66.5t68 49.5q-170 115 -170 280q0 131 99 217t247 86q315 0 358 -323l-172 -45q-12 229 -188 229q-72 0 -121 -40t-49 -97.5t49 -109.5t172 -124q184 -109 261 -207t77 -221q0 -207 -219 -352q88 -74 125.5 -139.5t37.5 -149.5 q0 -131 -100 -215t-258 -84q-201 0 -299 172q-33 61 -49 150l176 43q4 -111 53 -170.5t140 -59.5q70 0 119 43t49 103q0 57 -51.5 109.5t-174.5 121.5q-182 106 -261 203.5t-79 220.5zM254 614q0 -37 8 -67.5t30.5 -60t42 -50t64.5 -50.5l72 -47l90 -54q94 57 132 112.5 t38 130.5q0 68 -51 129.5t-180 141.5q-39 25 -64 43q-182 -105 -182 -228z" />
<glyph unicode="&#xa8;" horiz-adv-x="681" d="M61 1139v204h187v-204h-187zM434 1139v204h187v-204h-187z" />
<glyph unicode="&#xa9;" horiz-adv-x="1511" d="M0 737q0 311 221 532.5t535 221.5q311 0 532 -221t221 -533q0 -313 -221 -534t-532 -221q-313 0 -534.5 221t-221.5 534zM125 737q0 -262 185.5 -446.5t445.5 -184.5t444 185.5t184 445.5t-184 444.5t-444 184.5t-445.5 -184.5t-185.5 -444.5zM360 748q0 186 111 298.5 t293 112.5q131 0 219 -61.5t121 -173.5l-119 -29q-59 154 -233 154q-115 0 -185.5 -88.5t-70.5 -231.5t69.5 -225t190.5 -82q88 0 153.5 52t87.5 140l123 -36q-31 -127 -128 -201t-234 -74q-186 0 -292 119t-106 326z" />
<glyph unicode="&#xaa;" horiz-adv-x="681" d="M55 1046.5q0 90.5 69 147.5t193 70q74 10 97.5 18t54.5 39q0 53 -24.5 76.5t-94.5 23.5q-76 0 -116.5 -23.5t-63.5 -78.5l-90 49q33 78 93 110.5t167 32.5q236 0 235 -159v-375q0 -31 9.5 -40t42.5 -11v-76q-49 -14 -70 -14q-45 0 -65.5 28.5t-24.5 96.5 q-59 -70 -106.5 -96.5t-112.5 -26.5q-84 0 -138.5 59t-54.5 149.5zM170 1044q0 -53 33 -85.5t86 -32.5q70 0 124 53t54 115v145q-47 -35 -131 -51q-166 -33 -166 -144z" />
<glyph unicode="&#xab;" horiz-adv-x="980" d="M55 567l271 500h178l-271 -498l271 -497h-178zM477 567l271 500h178l-271 -498l271 -497h-178z" />
<glyph unicode="&#xac;" horiz-adv-x="1366" d="M135 827v158h1096v-645h-158v487h-938z" />
<glyph unicode="&#xad;" horiz-adv-x="768" d="M102 424v168h566v-168h-566z" />
<glyph unicode="&#xae;" horiz-adv-x="1511" d="M0 737q0 311 221 532.5t535 221.5q311 0 532 -221t221 -533q0 -313 -221 -534t-532 -221q-313 0 -534.5 221t-221.5 534zM125 737q0 -262 185.5 -446.5t445.5 -184.5t444 185.5t184 445.5t-184 444.5t-444 184.5t-445.5 -184.5t-185.5 -444.5zM424 319v811h278 q154 0 222 -26q53 -23 90 -76t37 -110q0 -98 -64.5 -163t-167.5 -73q45 -18 86 -62.5t103 -142.5l98 -158h-160l-72 127q-78 137 -121.5 177.5t-119.5 40.5h-78v-345h-131zM555 776h160q197 0 196 123q0 68 -46 94.5t-160 26.5h-150v-244z" />
<glyph unicode="&#xaf;" horiz-adv-x="681" d="M29 1153v147h624v-147h-624z" />
<glyph unicode="&#xb0;" horiz-adv-x="819" d="M133 1214.5q0 114.5 81 195.5t195.5 81t195.5 -81t81 -195.5t-81 -196.5t-195.5 -82t-195.5 82t-81 196.5zM242 1214.5q0 -69.5 49 -120t118.5 -50.5t119 49.5t49.5 120.5q0 70 -49.5 119t-119 49t-118.5 -49t-49 -118.5z" />
<glyph unicode="&#xb1;" horiz-adv-x="1366" d="M135 -49v158h1096v-158h-1096zM135 758v157h467v471h158v-471h471v-157h-471v-467h-158v467h-467z" />
<glyph unicode="&#xb2;" horiz-adv-x="661" d="M78 774q10 94 58 158.5t132 134.5q102 84 135 128t43 116q-4 55 -35.5 90t-82.5 35q-55 0 -92 -34t-37 -83q0 -29 16 -78l-96 -51q-31 68 -31 117q0 94 68.5 156.5t173.5 62.5q115 0 184.5 -59.5t69.5 -157.5q0 -78 -39 -134.5t-148 -136.5q-135 -98 -186 -159h362v-105 h-495z" />
<glyph unicode="&#xb3;" horiz-adv-x="661" d="M74 944q0 27 20 88l105 -45q-2 -14 -2 -27q0 -38 18 -63q25 -33 50.5 -39t53.5 -6q55 0 92.5 37t37.5 94q0 66 -44.5 101.5t-138.5 43.5v93q168 2 168 106q0 47 -32.5 77t-86.5 30q-20 0 -38.5 -4.5t-39 -26t-18.5 -62.5l-104 -38q-10 51 -11 71q0 66 61.5 110t156.5 44 q106 0 172.5 -51.5t66.5 -135.5q0 -57 -25.5 -95t-86.5 -75q139 -68 139 -194q0 -92 -78 -156.5t-186 -64.5q-104 0 -177 54t-73 134z" />
<glyph unicode="&#xb4;" horiz-adv-x="681" d="M240 1120l133 279h235l-219 -279h-149z" />
<glyph unicode="&#xb5;" horiz-adv-x="1138" d="M139 -408v1450h178v-497q0 -143 15.5 -213t60.5 -119q66 -76 166 -76q96 0 164 58q59 51 78.5 120.5t19.5 225.5v501h178v-1042h-161v125q-55 -84 -115.5 -117t-155.5 -33q-82 0 -137 29t-113 102v-514h-178z" />
<glyph unicode="&#xb6;" horiz-adv-x="1101" d="M-2 1061q0 125 58.5 222t162.5 147q104 47 252 47h633v-185h-143v-1700h-170v1700h-218v-1700h-170v1055q-188 10 -296.5 122t-108.5 292z" />
<glyph unicode="&#xb7;" horiz-adv-x="555" d="M178 444v258h199v-258h-199z" />
<glyph unicode="&#xb8;" horiz-adv-x="681" d="M123 -483l12 116q74 -4 92 -4q162 0 162 76q0 31 -29.5 46.5t-55 17.5t-71.5 2l52 178h135l-35 -107q82 -10 127 -50t45 -101q0 -84 -80 -135.5t-209 -51.5q-84 1 -145 13z" />
<glyph unicode="&#xb9;" horiz-adv-x="661" d="M197 1255v101q113 72 178 170h90v-752h-123v580q-75 -68 -145 -99z" />
<glyph unicode="&#xba;" horiz-adv-x="768" d="M86 1180q0 145 83 238t214 93t215 -93t84 -238q0 -154 -82 -248t-215 -94t-216 95t-83 247zM201 1178q0 -248 194 -248q80 0 127 65.5t47 178.5q0 115 -49 180t-135 65q-88 0 -136 -62t-48 -179z" />
<glyph unicode="&#xbb;" horiz-adv-x="980" d="M55 72l271 497l-271 498h178l271 -500l-271 -495h-178zM477 72l271 497l-271 498h178l271 -500l-271 -495h-178z" />
<glyph unicode="&#xbc;" d="M115 -346l1392 1829h129l-1388 -1829h-133zM213 1290q78 49 123 90t84 103h106v-846h-143v639q-72 -63 -170 -90v104zM999 2l349 494h133v-541h98v-121h-98v-182h-138v182h-344v168zM1104 -45h242v346z" />
<glyph unicode="&#xbd;" d="M119 -346l1382 1827h131l-1380 -1827h-133zM211 1192v104q72 39 116 79t89 106h104v-842h-139v639q-94 -78 -170 -86zM1094 -328q2 57 11 95t53 99.5t124 123.5q102 78 135 127t45 143q-6 137 -116 137q-53 0 -84 -34.5t-31 -92.5q0 -33 18 -86l-110 -69q-41 92 -41 151 q0 102 71.5 166t190.5 64q109 0 182.5 -71t73.5 -175q0 -72 -39 -136.5t-74 -94t-98 -76.5q-111 -80 -162 -146h361v-125h-510z" />
<glyph unicode="&#xbe;" d="M113 856q0 35 20 96l133 -53q-10 -33 -10 -53q0 -49 29.5 -79t81 -30t80 36t28.5 97q0 90 -43 127t-151 41v99h11q169 0 169 123q0 57 -25.5 89.5t-73.5 32.5q-35 0 -61.5 -22.5t-26.5 -50.5q0 -18 5 -33l-127 -47q-12 49 -13 80q0 74 65.5 123t166.5 49q109 0 174 -56.5 t65 -148.5q0 -66 -29.5 -108t-99.5 -81q154 -59 154 -206q0 -104 -76 -174t-192 -70q-104 0 -179 64.5t-75 154.5zM119 -346l1388 1827h129l-1384 -1827h-133zM999 0l349 496h133v-541h98v-121h-98v-182h-135v180h-347v168zM1106 -45h240v342z" />
<glyph unicode="&#xbf;" horiz-adv-x="1087" d="M135 6q0 117 54.5 212t187.5 210q80 70 102.5 117t24.5 141h153q0 -115 -20.5 -182.5t-49 -103t-108.5 -109.5q-152 -139 -151 -279q0 -100 65.5 -167.5t161.5 -67.5q231 0 231 336l166 -88q-6 -109 -31.5 -175.5t-82.5 -123.5q-113 -117 -299 -117q-174 0 -289 113.5 t-115 283.5zM483 881v256h199v-256h-199z" />
<glyph unicode="&#xc0;" d="M139 0l647 1477h181l645 -1477h-205l-158 356h-745l-158 -356h-207zM582 539h587l-292 673zM592 1864h239l136 -279h-146z" />
<glyph unicode="&#xc1;" d="M139 0l647 1477h181l645 -1477h-205l-158 356h-745l-158 -356h-207zM582 539h587l-292 673zM786 1585l134 279h235l-219 -279h-150z" />
<glyph unicode="&#xc2;" d="M139 0l647 1477h181l645 -1477h-205l-158 356h-745l-158 -356h-207zM559 1585l217 279h191l225 -279h-203l-110 170l-113 -170h-207zM582 539h587l-292 673z" />
<glyph unicode="&#xc3;" d="M139 0l647 1477h181l645 -1477h-205l-158 356h-745l-158 -356h-207zM541 1610q-2 106 58 166.5t149 60.5q61 0 151 -47l29 -14q49 -23 80 -23q33 0 49 19.5t22 66.5h131q-2 -106 -53 -166.5t-139 -60.5q-66 0 -152 47l-37 20q-47 25 -81 25q-33 0 -54.5 -24.5 t-19.5 -69.5h-133zM582 539h587l-292 673z" />
<glyph unicode="&#xc4;" d="M139 0l647 1477h181l645 -1477h-205l-158 356h-745l-158 -356h-207zM582 539h587l-292 673zM596 1604v204h186v-204h-186zM969 1604v204h186v-204h-186z" />
<glyph unicode="&#xc5;" d="M139 0l647 1477h181l645 -1477h-205l-158 356h-745l-158 -356h-207zM582 539h587l-292 673zM696 1729q0 74 54.5 126t130.5 52q72 0 124 -53.5t52 -129.5q0 -78 -52.5 -131t-128 -53t-128 55.5t-52.5 133.5zM774 1729q0 -47 30 -80t75 -33t75.5 31.5t30.5 76.5t-30.5 77 t-75.5 32q-43 0 -74 -30.5t-31 -73.5z" />
<glyph unicode="&#xc6;" horiz-adv-x="2197" d="M47 0l850 1477h1128l-63 -172h-674v-461h621v-172h-621v-502h680l55 -170h-936v358h-614l-207 -358h-219zM571 535h516v770h-75z" />
<glyph unicode="&#xc7;" horiz-adv-x="1536" d="M141 694q0 365 191.5 591t501.5 226q117 0 215 -32.5t155.5 -76.5t101.5 -100.5t60 -93.5t25 -65l-156 -133q-16 47 -28.5 75.5t-46.5 81t-70.5 82t-101 54t-142.5 24.5q-219 0 -353.5 -165t-134.5 -431q0 -158 40 -275.5t94.5 -177t127 -96.5t120.5 -45t94 -8 q182 0 315 129q57 55 108 160l140 -146q-63 -113 -129 -172q-158 -143 -406 -149l-33 -101q82 -10 127 -50t45 -101q0 -84 -79.5 -135t-208.5 -51q-84 0 -146 12l13 117q74 -4 92 -4q162 0 162 75q0 31 -30 46.5t-55.5 17.5t-70.5 2l51 176q-129 14 -232.5 66.5t-164 128 t-102.5 153.5t-59 163t-23.5 136t-6.5 92z" />
<glyph unicode="&#xc8;" horiz-adv-x="1216" d="M186 0v1477h920l-55 -174h-664v-453h608v-176h-608v-498h666l59 -176h-926zM340 1864h240l135 -279h-146z" />
<glyph unicode="&#xc9;" horiz-adv-x="1216" d="M186 0v1477h920l-55 -174h-664v-453h608v-176h-608v-498h666l59 -176h-926zM508 1585l133 279h236l-220 -279h-149z" />
<glyph unicode="&#xca;" horiz-adv-x="1216" d="M186 0v1477h920l-55 -174h-664v-453h608v-176h-608v-498h666l59 -176h-926zM313 1585l217 279h191l225 -279h-203l-110 170l-113 -170h-207z" />
<glyph unicode="&#xcb;" horiz-adv-x="1216" d="M186 0v1477h920l-55 -174h-664v-453h608v-176h-608v-498h666l59 -176h-926zM350 1604v204h187v-204h-187zM723 1604v204h186v-204h-186z" />
<glyph unicode="&#xcc;" horiz-adv-x="661" d="M47 1864h240l135 -279h-146zM229 0v1477h203v-1477h-203z" />
<glyph unicode="&#xcd;" horiz-adv-x="661" d="M227 1585l133 279h236l-219 -279h-150zM229 0v1477h203v-1477h-203z" />
<glyph unicode="&#xce;" horiz-adv-x="661" d="M14 1585l217 279h191l225 -279h-203l-110 170l-113 -170h-207zM229 0v1477h203v-1477h-203z" />
<glyph unicode="&#xcf;" horiz-adv-x="661" d="M51 1604v204h187v-204h-187zM229 0v1477h203v-1477h-203zM424 1604v204h186v-204h-186z" />
<glyph unicode="&#xd0;" horiz-adv-x="1642" d="M63 659v156h216v662h550q301 0 465 -164q221 -215 222 -574q0 -344 -176.5 -541.5t-485.5 -197.5h-575v659h-216zM481 182h367q213 0 332.5 145.5t119.5 401.5q0 311 -159 461q-109 106 -310 106h-350v-481h480v-156h-480v-477z" />
<glyph unicode="&#xd1;" horiz-adv-x="1536" d="M205 0v1477h272l651 -1151v1151h203v-1477h-241l-684 1204v-1204h-201zM455 1610q-2 106 58 166.5t149 60.5q61 0 151 -47l29 -14q49 -23 80 -23q33 0 49 19.5t22 66.5h131q-2 -106 -53 -166.5t-139 -60.5q-66 0 -152 47l-37 20q-47 25 -81 25q-33 0 -54.5 -24.5 t-19.5 -69.5h-133z" />
<glyph unicode="&#xd2;" horiz-adv-x="1642" d="M121 739q0 356 194.5 564t511.5 208q311 0 504 -212t193 -556q0 -193 -54.5 -341t-132 -230t-180 -135t-183.5 -69.5t-155 -16.5q-322 0 -510 211.5t-188 576.5zM336 725q0 -264 135 -430t350 -166q223 0 355.5 168t132.5 448q0 266 -131 426t-351 160 q-227 0 -359 -162.5t-132 -443.5zM553 1864h240l135 -279h-146z" />
<glyph unicode="&#xd3;" horiz-adv-x="1642" d="M121 739q0 356 194.5 564t511.5 208q311 0 504 -212t193 -556q0 -193 -54.5 -341t-132 -230t-180 -135t-183.5 -69.5t-155 -16.5q-322 0 -510 211.5t-188 576.5zM336 725q0 -264 135 -430t350 -166q223 0 355.5 168t132.5 448q0 266 -131 426t-351 160 q-227 0 -359 -162.5t-132 -443.5zM721 1585l133 279h236l-220 -279h-149z" />
<glyph unicode="&#xd4;" horiz-adv-x="1642" d="M121 739q0 356 194.5 564t511.5 208q311 0 504 -212t193 -556q0 -193 -54.5 -341t-132 -230t-180 -135t-183.5 -69.5t-155 -16.5q-322 0 -510 211.5t-188 576.5zM336 725q0 -264 135 -430t350 -166q223 0 355.5 168t132.5 448q0 266 -131 426t-351 160 q-227 0 -359 -162.5t-132 -443.5zM506 1585l217 279h190l226 -279h-203l-111 170l-112 -170h-207z" />
<glyph unicode="&#xd5;" horiz-adv-x="1642" d="M121 739q0 356 194.5 564t511.5 208q311 0 504 -212t193 -556q0 -193 -54.5 -341t-132 -230t-180 -135t-183.5 -69.5t-155 -16.5q-322 0 -510 211.5t-188 576.5zM336 725q0 -264 135 -430t350 -166q223 0 355.5 168t132.5 448q0 266 -131 426t-351 160 q-227 0 -359 -162.5t-132 -443.5zM487 1610q-2 106 58.5 166.5t148.5 60.5q61 0 152 -47l28 -14q49 -23 80 -23q33 0 49.5 19.5t22.5 66.5h131q-2 -106 -53 -166.5t-139 -60.5q-66 0 -152 47l-37 20q-47 25 -82 25q-33 0 -54.5 -24.5t-18.5 -69.5h-134z" />
<glyph unicode="&#xd6;" horiz-adv-x="1642" d="M121 739q0 356 194.5 564t511.5 208q311 0 504 -212t193 -556q0 -193 -54.5 -341t-132 -230t-180 -135t-183.5 -69.5t-155 -16.5q-322 0 -510 211.5t-188 576.5zM336 725q0 -264 135 -430t350 -166q223 0 355.5 168t132.5 448q0 266 -131 426t-351 160 q-227 0 -359 -162.5t-132 -443.5zM543 1604v204h186v-204h-186zM915 1604v204h187v-204h-187z" />
<glyph unicode="&#xd7;" horiz-adv-x="1368" d="M176 1063l111 111l397 -398l397 398l113 -111l-397 -397l393 -396l-111 -110l-393 395l-397 -395l-111 110l395 396z" />
<glyph unicode="&#xd8;" horiz-adv-x="1642" d="M119 55l145 168q-141 201 -141 516q0 356 194.5 564t511.5 208q258 0 435 -145l129 147l120 -108l-137 -158q150 -201 150 -504q0 -193 -54.5 -341t-132 -230t-180 -135t-183.5 -69.5t-155 -16.5q-270 0 -444 149l-133 -153zM338 725q0 -197 74 -334l723 826 q-125 115 -306 114q-227 0 -359 -162.5t-132 -443.5zM510 254q129 -125 313 -125q223 0 355.5 168t132.5 448q0 199 -76 340z" />
<glyph unicode="&#xd9;" horiz-adv-x="1536" d="M205 444v1033h203v-1014q0 -158 95 -242t275 -84q80 0 155 25.5t118 70.5q78 78 77 273v971h203v-1002q0 -246 -125 -373q-147 -152 -440 -151q-262 0 -411.5 131t-149.5 362zM500 1864h239l135 -279h-145z" />
<glyph unicode="&#xda;" horiz-adv-x="1536" d="M205 444v1033h203v-1014q0 -158 95 -242t275 -84q80 0 155 25.5t118 70.5q78 78 77 273v971h203v-1002q0 -246 -125 -373q-147 -152 -440 -151q-262 0 -411.5 131t-149.5 362zM668 1585l133 279h235l-219 -279h-149z" />
<glyph unicode="&#xdb;" horiz-adv-x="1536" d="M205 444v1033h203v-1014q0 -158 95 -242t275 -84q80 0 155 25.5t118 70.5q78 78 77 273v971h203v-1002q0 -246 -125 -373q-147 -152 -440 -151q-262 0 -411.5 131t-149.5 362zM453 1585l217 279h190l225 -279h-202l-111 170l-113 -170h-206z" />
<glyph unicode="&#xdc;" horiz-adv-x="1536" d="M205 444v1033h203v-1014q0 -158 95 -242t275 -84q80 0 155 25.5t118 70.5q78 78 77 273v971h203v-1002q0 -246 -125 -373q-147 -152 -440 -151q-262 0 -411.5 131t-149.5 362zM489 1604v204h187v-204h-187zM862 1604v204h187v-204h-187z" />
<glyph unicode="&#xdd;" horiz-adv-x="1429" d="M84 1477h227l396 -666l413 666h228l-539 -871v-606h-203v598zM614 1585l134 279h235l-219 -279h-150z" />
<glyph unicode="&#xde;" horiz-adv-x="1429" d="M215 0v1477h201v-299h395q215 0 350 -122t135 -317q0 -205 -141 -321.5t-387 -116.5h-352v-301h-201zM416 477h299q182 0 268 62.5t86 193.5q0 266 -330 266h-323v-522z" />
<glyph unicode="&#xdf;" horiz-adv-x="1216" d="M156 1116q0 184 109.5 286.5t307.5 102.5q197 0 321 -100t124 -258q0 -236 -217 -305q51 -23 83.5 -44.5t80 -67.5t72 -124t24.5 -182q0 -203 -96.5 -326t-253.5 -123q-201 0 -273 185q-20 59 -20 164h139q10 -205 148 -205q88 0 126.5 71.5t38.5 229.5q0 86 -10 144.5 t-41 108.5t-90 74.5t-154 26.5v141q137 2 196.5 55.5t59.5 168.5q0 221 -253 221q-139 0 -195.5 -64.5t-56.5 -226.5v-1069h-170v1116z" />
<glyph unicode="&#xe0;" horiz-adv-x="1124" d="M92 311q0 131 96 232q106 113 349 135q115 12 150.5 26.5t86.5 65.5q-2 94 -43 127t-158 33q-121 0 -189.5 -39t-104.5 -129l-146 80q14 37 27.5 62.5t46.5 62.5t75 59.5t115.5 39.5t167.5 17q111 0 187.5 -23.5t114.5 -54t58.5 -81t22.5 -79t2 -73.5v-516 q0 -98 12.5 -119.5t71.5 -23.5v-121q-84 -25 -112 -25q-66 0 -101 36t-42 75t-7 96q-45 -55 -81 -91t-112.5 -76t-160.5 -40q-139 0 -232.5 98.5t-93.5 245.5zM279 309q0 -86 55 -141t143 -55q113 0 203 86q53 51 73.5 109.5t20.5 156.5v170q-57 -43 -92 -57.5t-125 -30.5 q-162 -27 -225 -103q-53 -59 -53 -135zM334 1419h239l136 -278h-146z" />
<glyph unicode="&#xe1;" horiz-adv-x="1124" d="M92 311q0 131 96 232q106 113 349 135q115 12 150.5 26.5t86.5 65.5q-2 94 -43 127t-158 33q-121 0 -189.5 -39t-104.5 -129l-146 80q14 37 27.5 62.5t46.5 62.5t75 59.5t115.5 39.5t167.5 17q111 0 187.5 -23.5t114.5 -54t58.5 -81t22.5 -79t2 -73.5v-516 q0 -98 12.5 -119.5t71.5 -23.5v-121q-84 -25 -112 -25q-66 0 -101 36t-42 75t-7 96q-45 -55 -81 -91t-112.5 -76t-160.5 -40q-139 0 -232.5 98.5t-93.5 245.5zM279 309q0 -86 55 -141t143 -55q113 0 203 86q53 51 73.5 109.5t20.5 156.5v170q-57 -43 -92 -57.5t-125 -30.5 q-162 -27 -225 -103q-53 -59 -53 -135zM440 1141l133 278h236l-219 -278h-150z" />
<glyph unicode="&#xe2;" horiz-adv-x="1124" d="M92 311q0 131 96 232q106 113 349 135q115 12 150.5 26.5t86.5 65.5q-2 94 -43 127t-158 33q-121 0 -189.5 -39t-104.5 -129l-146 80q14 37 27.5 62.5t46.5 62.5t75 59.5t115.5 39.5t167.5 17q111 0 187.5 -23.5t114.5 -54t58.5 -81t22.5 -79t2 -73.5v-516 q0 -98 12.5 -119.5t71.5 -23.5v-121q-84 -25 -112 -25q-66 0 -101 36t-42 75t-7 96q-45 -55 -81 -91t-112.5 -76t-160.5 -40q-139 0 -232.5 98.5t-93.5 245.5zM246 1141l217 278h190l226 -278h-203l-111 170l-112 -170h-207zM279 309q0 -86 55 -141t143 -55q113 0 203 86 q53 51 73.5 109.5t20.5 156.5v170q-57 -43 -92 -57.5t-125 -30.5q-162 -27 -225 -103q-53 -59 -53 -135z" />
<glyph unicode="&#xe3;" horiz-adv-x="1124" d="M92 311q0 131 96 232q106 113 349 135q115 12 150.5 26.5t86.5 65.5q-2 94 -43 127t-158 33q-121 0 -189.5 -39t-104.5 -129l-146 80q14 37 27.5 62.5t46.5 62.5t75 59.5t115.5 39.5t167.5 17q111 0 187.5 -23.5t114.5 -54t58.5 -81t22.5 -79t2 -73.5v-516 q0 -98 12.5 -119.5t71.5 -23.5v-121q-84 -25 -112 -25q-66 0 -101 36t-42 75t-7 96q-45 -55 -81 -91t-112.5 -76t-160.5 -40q-139 0 -232.5 98.5t-93.5 245.5zM207 1165q-2 106 58.5 167t148.5 61q61 0 151 -47l29 -15q49 -23 80 -22q33 0 49 19.5t22 66.5h132 q-2 -106 -53.5 -167t-139.5 -61q-66 0 -152 47l-36 21q-47 25 -82 25q-33 0 -54.5 -25t-19.5 -70h-133zM279 309q0 -86 55 -141t143 -55q113 0 203 86q53 51 73.5 109.5t20.5 156.5v170q-57 -43 -92 -57.5t-125 -30.5q-162 -27 -225 -103q-53 -59 -53 -135z" />
<glyph unicode="&#xe4;" horiz-adv-x="1124" d="M92 311q0 131 96 232q106 113 349 135q115 12 150.5 26.5t86.5 65.5q-2 94 -43 127t-158 33q-121 0 -189.5 -39t-104.5 -129l-146 80q14 37 27.5 62.5t46.5 62.5t75 59.5t115.5 39.5t167.5 17q111 0 187.5 -23.5t114.5 -54t58.5 -81t22.5 -79t2 -73.5v-516 q0 -98 12.5 -119.5t71.5 -23.5v-121q-84 -25 -112 -25q-66 0 -101 36t-42 75t-7 96q-45 -55 -81 -91t-112.5 -76t-160.5 -40q-139 0 -232.5 98.5t-93.5 245.5zM279 309q0 -86 55 -141t143 -55q113 0 203 86q53 51 73.5 109.5t20.5 156.5v170q-57 -43 -92 -57.5t-125 -30.5 q-162 -27 -225 -103q-53 -59 -53 -135zM283 1159v205h186v-205h-186zM655 1159v205h187v-205h-187z" />
<glyph unicode="&#xe5;" horiz-adv-x="1124" d="M92 311q0 131 96 232q106 113 349 135q115 12 150.5 26.5t86.5 65.5q-2 94 -43 127t-158 33q-121 0 -189.5 -39t-104.5 -129l-146 80q14 37 27.5 62.5t46.5 62.5t75 59.5t115.5 39.5t167.5 17q111 0 187.5 -23.5t114.5 -54t58.5 -81t22.5 -79t2 -73.5v-516 q0 -98 12.5 -119.5t71.5 -23.5v-121q-84 -25 -112 -25q-66 0 -101 36t-42 75t-7 96q-45 -55 -81 -91t-112.5 -76t-160.5 -40q-139 0 -232.5 98.5t-93.5 245.5zM279 309q0 -86 55 -141t143 -55q113 0 203 86q53 51 73.5 109.5t20.5 156.5v170q-57 -43 -92 -57.5t-125 -30.5 q-162 -27 -225 -103q-53 -59 -53 -135zM383 1325q0 74 54.5 126t129.5 52q72 0 124 -53t52 -129q0 -78 -52 -131t-128 -53t-128 55t-52 133zM461 1325q0 -47 29.5 -80t74.5 -33t76 32t31 77t-31 76.5t-76 31.5q-43 0 -73.5 -30.5t-30.5 -73.5z" />
<glyph unicode="&#xe6;" horiz-adv-x="1789" d="M92 309q0 135 92 232q100 102 336 129q119 12 160 27.5t94 70.5q0 8 1 15q0 75 -38 113q-41 42 -164 42q-227 0 -292 -170l-150 76q12 35 22.5 58.5t42 61t74.5 60.5t120 41t175 18q141 0 217 -28.5t135 -106.5q145 137 328 137q195 0 321 -147t126 -375q0 -45 -4 -90 h-730q8 -190 99 -280q76 -80 190 -80q217 0 281 231l147 -72q-141 -305 -436 -305q-150 0 -247 69.5t-169 215.5q-37 -57 -64.5 -92t-79.5 -87.5t-116.5 -79t-140.5 -26.5q-145 0 -237.5 95t-92.5 247zM281 305q0 -86 54 -139t142 -53q113 0 201 82q96 90 96 268v170 q-63 -45 -101 -60.5t-128 -31.5q-123 -20 -193.5 -73.5t-70.5 -162.5zM961 616h544q-4 92 -32.5 159t-61.5 97.5t-77 48t-63.5 19.5t-37.5 2q-168 0 -240 -162q-24 -58 -32 -164z" />
<glyph unicode="&#xe7;" horiz-adv-x="1122" d="M111 532q0 238 138 394.5t349 156.5q98 0 176 -32.5t122 -84t67.5 -96.5t31.5 -86l-147 -69q-61 217 -256 217q-141 0 -218 -105.5t-77 -298.5q0 -225 102 -327q86 -90 209 -90q201 0 271 221l133 -72q-6 -35 -28.5 -78t-64.5 -92t-120 -84t-176 -39l-29 -90 q82 -10 127 -50t45 -101q0 -84 -80 -135.5t-209 -51.5q-84 0 -145 12l12 117q74 -4 92 -4q162 0 162 76q0 31 -29.5 46t-55.5 17t-71 2l50 172q-172 37 -276.5 187.5t-104.5 367.5z" />
<glyph unicode="&#xe8;" horiz-adv-x="1120" d="M100 524q0 246 132.5 400.5t342.5 154.5q193 0 320 -142t127 -357q0 -23 -4 -113h-733q6 -100 35.5 -173t64.5 -106.5t82 -53t68.5 -21.5t46.5 -2q72 0 125 24.5t84.5 68.5t45 70.5t27.5 65.5l144 -70q-49 -109 -111 -170q-137 -133 -330 -133q-209 0 -338 154.5 t-129 402.5zM291 610h547q-4 92 -33 159t-60.5 97.5t-75.5 48t-63.5 19.5t-38.5 2q-125 0 -196.5 -85t-79.5 -241zM334 1419h239l136 -278h-146z" />
<glyph unicode="&#xe9;" horiz-adv-x="1120" d="M100 524q0 246 132.5 400.5t342.5 154.5q193 0 320 -142t127 -357q0 -23 -4 -113h-733q6 -100 35.5 -173t64.5 -106.5t82 -53t68.5 -21.5t46.5 -2q72 0 125 24.5t84.5 68.5t45 70.5t27.5 65.5l144 -70q-49 -109 -111 -170q-137 -133 -330 -133q-209 0 -338 154.5 t-129 402.5zM291 610h547q-4 92 -33 159t-60.5 97.5t-75.5 48t-63.5 19.5t-38.5 2q-125 0 -196.5 -85t-79.5 -241zM440 1141l133 278h236l-219 -278h-150z" />
<glyph unicode="&#xea;" horiz-adv-x="1120" d="M100 524q0 246 132.5 400.5t342.5 154.5q193 0 320 -142t127 -357q0 -23 -4 -113h-733q6 -100 35.5 -173t64.5 -106.5t82 -53t68.5 -21.5t46.5 -2q72 0 125 24.5t84.5 68.5t45 70.5t27.5 65.5l144 -70q-49 -109 -111 -170q-137 -133 -330 -133q-209 0 -338 154.5 t-129 402.5zM254 1141l217 278h191l225 -278h-203l-111 170l-112 -170h-207zM291 610h547q-4 92 -33 159t-60.5 97.5t-75.5 48t-63.5 19.5t-38.5 2q-125 0 -196.5 -85t-79.5 -241z" />
<glyph unicode="&#xeb;" horiz-adv-x="1120" d="M100 524q0 246 132.5 400.5t342.5 154.5q193 0 320 -142t127 -357q0 -23 -4 -113h-733q6 -100 35.5 -173t64.5 -106.5t82 -53t68.5 -21.5t46.5 -2q72 0 125 24.5t84.5 68.5t45 70.5t27.5 65.5l144 -70q-49 -109 -111 -170q-137 -133 -330 -133q-209 0 -338 154.5 t-129 402.5zM283 1159v205h186v-205h-186zM291 610h547q-4 92 -33 159t-60.5 97.5t-75.5 48t-63.5 19.5t-38.5 2q-125 0 -196.5 -85t-79.5 -241zM655 1159v205h187v-205h-187z" />
<glyph unicode="&#xec;" horiz-adv-x="563" d="M18 1419h240l135 -278h-145zM201 0v1053h178v-1053h-178z" />
<glyph unicode="&#xed;" horiz-adv-x="563" d="M199 1141l133 278h235l-219 -278h-149zM201 0v1053h178v-1053h-178z" />
<glyph unicode="&#xee;" horiz-adv-x="563" d="M-27 1141l217 278h191l225 -278h-203l-110 170l-113 -170h-207zM201 0v1053h178v-1053h-178z" />
<glyph unicode="&#xef;" horiz-adv-x="563" d="M2 1159v205h186v-205h-186zM201 0v1053h178v-1053h-178zM375 1159v205h186v-205h-186z" />
<glyph unicode="&#xf0;" horiz-adv-x="1216" d="M135 508q0 227 131 380.5t324 153.5q104 0 227 -75q-8 43 -59 114.5t-129 141.5l-283 -123l-45 104l225 99h-2q-76 49 -159 81l65 99q117 -27 250 -115l258 111l45 -105l-203 -86q63 -59 123 -135q180 -236 180 -600q0 -307 -153 -455q-59 -57 -146.5 -92t-173.5 -35 q-209 0 -342 150.5t-133 386.5zM317 510q0 -186 80 -288.5t226 -102.5q127 0 203.5 107.5t76.5 285.5q0 180 -80 282.5t-219 102.5q-137 0 -212 -101.5t-75 -285.5z" />
<glyph unicode="&#xf1;" horiz-adv-x="1249" d="M205 0v1053h178v-189q147 215 344 215q143 0 231.5 -96t88.5 -252v-731h-179v678q0 119 -58 184.5t-161 65.5q-115 0 -190.5 -74t-75.5 -188v-666h-178zM299 1165q-2 106 58.5 167t148.5 61q61 0 151 -47l29 -15q49 -23 80 -22q33 0 49 19.5t23 66.5h131 q-2 -106 -53.5 -167t-139.5 -61q-66 0 -151 47l-37 21q-47 25 -82 25q-33 0 -54.5 -25t-19.5 -70h-133z" />
<glyph unicode="&#xf2;" horiz-adv-x="1253" d="M137 530q0 242 136.5 395.5t349.5 153.5q217 0 355 -151.5t138 -390.5q0 -260 -135 -415t-360 -155q-215 0 -349.5 156.5t-134.5 406.5zM324 520q0 -190 81.5 -294.5t231.5 -104.5q137 0 215 107.5t78 295.5q0 205 -85 305.5t-224.5 100.5t-218 -106.5t-78.5 -303.5z M414 1419h239l135 -278h-145z" />
<glyph unicode="&#xf3;" horiz-adv-x="1253" d="M137 530q0 242 136.5 395.5t349.5 153.5q217 0 355 -151.5t138 -390.5q0 -260 -135 -415t-360 -155q-215 0 -349.5 156.5t-134.5 406.5zM324 520q0 -190 81.5 -294.5t231.5 -104.5q137 0 215 107.5t78 295.5q0 205 -85 305.5t-224.5 100.5t-218 -106.5t-78.5 -303.5z M500 1141l133 278h235l-219 -278h-149z" />
<glyph unicode="&#xf4;" horiz-adv-x="1253" d="M137 530q0 242 136.5 395.5t349.5 153.5q217 0 355 -151.5t138 -390.5q0 -260 -135 -415t-360 -155q-215 0 -349.5 156.5t-134.5 406.5zM305 1141l217 278h191l225 -278h-203l-110 170l-113 -170h-207zM324 520q0 -190 81.5 -294.5t231.5 -104.5q137 0 215 107.5 t78 295.5q0 205 -85 305.5t-224.5 100.5t-218 -106.5t-78.5 -303.5z" />
<glyph unicode="&#xf5;" horiz-adv-x="1253" d="M137 530q0 242 136.5 395.5t349.5 153.5q217 0 355 -151.5t138 -390.5q0 -260 -135 -415t-360 -155q-215 0 -349.5 156.5t-134.5 406.5zM301 1165q-2 106 58.5 167t148.5 61q61 0 151 -47l29 -15q49 -23 80 -22q33 0 49.5 19.5t22.5 66.5h131q-2 -106 -53.5 -167 t-139.5 -61q-66 0 -151 47l-37 21q-47 25 -82 25q-33 0 -54.5 -25t-19.5 -70h-133zM324 520q0 -190 81.5 -294.5t231.5 -104.5q137 0 215 107.5t78 295.5q0 205 -85 305.5t-224.5 100.5t-218 -106.5t-78.5 -303.5z" />
<glyph unicode="&#xf6;" horiz-adv-x="1253" d="M137 530q0 242 136.5 395.5t349.5 153.5q217 0 355 -151.5t138 -390.5q0 -260 -135 -415t-360 -155q-215 0 -349.5 156.5t-134.5 406.5zM324 520q0 -190 81.5 -294.5t231.5 -104.5q137 0 215 107.5t78 295.5q0 205 -85 305.5t-224.5 100.5t-218 -106.5t-78.5 -303.5z M346 1159v205h186v-205h-186zM719 1159v205h186v-205h-186z" />
<glyph unicode="&#xf7;" horiz-adv-x="1368" d="M135 588v157h1098v-157h-1098zM582 1081q0 39 28.5 67t69.5 28t69.5 -29t28.5 -70t-28.5 -69.5t-67.5 -28.5q-41 0 -70.5 29.5t-29.5 72.5zM582 256q0 41 29.5 69.5t70.5 28.5t69.5 -27.5t28.5 -68.5t-28.5 -70.5t-69.5 -29.5t-70.5 28.5t-29.5 69.5z" />
<glyph unicode="&#xf8;" horiz-adv-x="1265" d="M109 37l131 149q-92 139 -93 344q0 242 136.5 395.5t349.5 153.5q172 0 297 -96l119 135l110 -102l-127 -148q94 -131 94 -331q0 -260 -135 -415t-360 -155q-168 0 -293 103l-117 -133zM334 520q0 -96 28 -192l463 532q-76 70 -194 70q-139 0 -218 -106.5t-79 -303.5z M446 195q78 -74 201 -74q137 0 215 107.5t78 295.5q0 125 -33 203z" />
<glyph unicode="&#xf9;" horiz-adv-x="1249" d="M203 311v742h178v-664q0 -266 211 -266q115 0 195.5 83t80.5 200v647h179v-1053h-183v186q-141 -221 -332 -221q-147 0 -238 95t-91 251zM412 1419h239l135 -278h-145z" />
<glyph unicode="&#xfa;" horiz-adv-x="1249" d="M203 311v742h178v-664q0 -266 211 -266q115 0 195.5 83t80.5 200v647h179v-1053h-183v186q-141 -221 -332 -221q-147 0 -238 95t-91 251zM477 1141l133 278h236l-219 -278h-150z" />
<glyph unicode="&#xfb;" horiz-adv-x="1249" d="M203 311v742h178v-664q0 -266 211 -266q115 0 195.5 83t80.5 200v647h179v-1053h-183v186q-141 -221 -332 -221q-147 0 -238 95t-91 251zM303 1141l217 278h191l225 -278h-203l-110 170l-113 -170h-207z" />
<glyph unicode="&#xfc;" horiz-adv-x="1249" d="M203 311v742h178v-664q0 -266 211 -266q115 0 195.5 83t80.5 200v647h179v-1053h-183v186q-141 -221 -332 -221q-147 0 -238 95t-91 251zM348 1159v205h187v-205h-187zM721 1159v205h186v-205h-186z" />
<glyph unicode="&#xfd;" horiz-adv-x="1013" d="M78 1053h168l274 -824l246 824h170l-356 -1153q-14 -49 -22.5 -74t-25 -65t-31 -58t-39 -44t-53 -38t-69.5 -20.5t-92 -8.5q-43 0 -123 9v149q76 -12 119 -12q84 0 119.5 42t82.5 195zM334 1141l133 278h235l-219 -278h-149z" />
<glyph unicode="&#xfe;" horiz-adv-x="1265" d="M215 -408v1885h176v-672q29 59 51.5 97t63.5 83t99.5 66.5t133.5 21.5q174 0 279.5 -148.5t105.5 -394.5q0 -254 -109.5 -406.5t-289.5 -152.5q-70 0 -122 20.5t-92 66.5t-62.5 82t-55.5 102v-650h-178zM391 518q0 -182 81 -289.5t214 -107.5q92 0 154 65q96 96 96 357 q0 379 -250 379q-137 0 -216 -107t-79 -297z" />
<glyph unicode="&#xff;" horiz-adv-x="1013" d="M78 1053h168l274 -824l246 824h170l-356 -1153q-14 -49 -22.5 -74t-25 -65t-31 -58t-39 -44t-53 -38t-69.5 -20.5t-92 -8.5q-43 0 -123 9v149q76 -12 119 -12q84 0 119.5 42t82.5 195zM240 1159v205h186v-205h-186zM612 1159v205h187v-205h-187z" />
<glyph unicode="&#x152;" horiz-adv-x="2197" d="M98 721q0 360 198 567q188 197 483 197h30l72 -4l143 -4h1071l-61 -170h-658v-461h604v-172h-604v-500h662l61 -172h-962q-25 0 -172 -4q-152 -4 -179 -4q-317 0 -502.5 196.5t-185.5 530.5zM332 733q0 -295 151 -450q68 -70 150 -93.5t252 -23.5l188 4l101 4v1133 q-154 0 -197 2h-70q-170 0 -265 -28t-161 -95q-149 -156 -149 -453z" />
<glyph unicode="&#x153;" horiz-adv-x="1880" d="M137 512q0 250 132 408.5t337 158.5q78 0 142.5 -18.5t112.5 -55t71.5 -60t56.5 -64.5q51 72 98 110q113 88 267 88q178 0 303 -143t125 -348q0 -47 -6 -121h-693q4 -96 30 -167t56.5 -105.5t71.5 -54t65.5 -23.5t49.5 -4q195 0 262 231l143 -72q-16 -39 -31.5 -68.5 t-52.5 -77.5t-80 -79t-113.5 -55.5t-154.5 -24.5q-72 0 -130 19.5t-101 58.5t-62.5 62.5t-50.5 68.5q-49 -59 -90 -98t-118 -75t-163 -36q-203 0 -340 157t-137 388zM326 526.5q0 -188.5 77.5 -296t212.5 -107.5q129 0 202 109.5t73 304.5q0 182 -75 287.5t-204 105.5 q-133 0 -209.5 -107.5t-76.5 -296zM1090 612h503q-2 150 -69.5 240t-180.5 90q-31 0 -65.5 -11t-80.5 -41t-76.5 -102t-30.5 -176z" />
<glyph unicode="&#x178;" horiz-adv-x="1429" d="M84 1477h227l396 -666l413 666h228l-539 -871v-606h-203v598zM436 1604v204h187v-204h-187zM809 1604v204h186v-204h-186z" />
<glyph unicode="&#x2c6;" horiz-adv-x="681" d="M25 1120l217 279h190l225 -279h-202l-111 170l-113 -170h-206z" />
<glyph unicode="&#x2dc;" horiz-adv-x="681" d="M6 1145q-2 106 58.5 166.5t148.5 60.5q61 0 152 -47l28 -14q49 -23 80 -23q33 0 49.5 19.5t22.5 66.5h131q-2 -106 -53.5 -166.5t-139.5 -60.5q-66 0 -151 47l-37 20q-47 25 -82 25q-33 0 -54.5 -24.5t-19.5 -69.5h-133z" />
<glyph unicode="&#x2000;" horiz-adv-x="952" />
<glyph unicode="&#x2001;" horiz-adv-x="1904" />
<glyph unicode="&#x2002;" horiz-adv-x="952" />
<glyph unicode="&#x2003;" horiz-adv-x="1904" />
<glyph unicode="&#x2004;" horiz-adv-x="634" />
<glyph unicode="&#x2005;" horiz-adv-x="475" />
<glyph unicode="&#x2006;" horiz-adv-x="317" />
<glyph unicode="&#x2007;" horiz-adv-x="317" />
<glyph unicode="&#x2008;" horiz-adv-x="237" />
<glyph unicode="&#x2009;" horiz-adv-x="380" />
<glyph unicode="&#x200a;" horiz-adv-x="104" />
<glyph unicode="&#x2010;" horiz-adv-x="768" d="M102 424v168h566v-168h-566z" />
<glyph unicode="&#x2011;" horiz-adv-x="768" d="M102 424v168h566v-168h-566z" />
<glyph unicode="&#x2012;" horiz-adv-x="768" d="M102 424v168h566v-168h-566z" />
<glyph unicode="&#x2013;" horiz-adv-x="1024" d="M-10 422v182h1044v-182h-1044z" />
<glyph unicode="&#x2014;" horiz-adv-x="2048" d="M-10 422v182h2066v-182h-2066z" />
<glyph unicode="&#x2018;" horiz-adv-x="555" d="M180 1153q0 197 127 324l58 -60q-41 -68 -54.5 -109.5t-15.5 -119.5h82v-260h-197v225z" />
<glyph unicode="&#x2019;" horiz-adv-x="555" d="M176 1477h201v-287q0 -66 -34 -137.5t-89 -124.5l-61 63q37 61 48 103.5t13 122.5h-78v260z" />
<glyph unicode="&#x201a;" horiz-adv-x="555" d="M176 -248q80 92 80 234v14h-76v262h201v-272q0 -213 -166 -318z" />
<glyph unicode="&#x201c;" horiz-adv-x="980" d="M164 934v215q0 203 127 328l63 -56q-45 -68 -58 -111.5t-13 -119.5h82v-256h-201zM618 934v221q0 176 134 322l57 -54q-63 -100 -66 -235h74v-254h-199z" />
<glyph unicode="&#x201d;" horiz-adv-x="980" d="M164 1221v256h201v-244q0 -170 -134 -299l-59 55q39 57 52.5 103.5t15.5 128.5h-76zM616 1221v256h201v-230q0 -176 -127 -313l-59 57q39 63 52 107.5t17 122.5h-84z" />
<glyph unicode="&#x201e;" horiz-adv-x="980" d="M164 -248q53 70 68 118q12 38 13 97q0 16 -1 33h-76v262h201v-272q0 -201 -164 -318zM616 -248q55 72 69 119q12 41 12 108q0 10 -1 21h-75v262h198v-272q0 -211 -164 -318z" />
<glyph unicode="&#x2022;" horiz-adv-x="1394" d="M104 688q0 246 174.5 420t417.5 174q246 0 420 -174t174 -420q0 -244 -174 -416t-420 -172q-244 0 -418 172t-174 416z" />
<glyph unicode="&#x2026;" d="M190 0v260h201v-260h-201zM774 0v258h201v-258h-201zM1358 0v258h201v-258h-201z" />
<glyph unicode="&#x202f;" horiz-adv-x="380" />
<glyph unicode="&#x2039;" horiz-adv-x="661" d="M106 567l271 500h178l-270 -498l270 -497h-178z" />
<glyph unicode="&#x203a;" horiz-adv-x="661" d="M106 72l271 497l-271 498h179l270 -500l-270 -495h-179z" />
<glyph unicode="&#x205f;" horiz-adv-x="475" />
<glyph unicode="&#x20ac;" horiz-adv-x="1153" d="M37 504l26 127h121v26q0 35 4 97h-147l27 127h135q41 248 166 391t303 143q102 0 182 -39t122 -96t62.5 -101t26.5 -79l-131 -56q-25 90 -88.5 159t-165.5 69q-119 0 -195.5 -105.5t-101.5 -285.5h631l-27 -127h-614q0 -10 -1 -31t-1 -31t1 -30.5t1 -30.5h555l-27 -127 h-518q16 -121 54 -205t84 -121t82 -51t69 -14q98 0 168.5 65.5t109.5 151.5l119 -84q-121 -279 -395 -279q-123 0 -215 52.5t-143.5 140.5t-78 169t-40.5 175h-160z" />
<glyph unicode="&#x2122;" horiz-adv-x="2048" d="M244 1356v121h665v-121h-266v-694h-135v694h-264zM1001 662v815h201l205 -652l199 652h196v-815h-125v684l-209 -684h-122l-220 694v-694h-125z" />
<glyph unicode="&#xe000;" horiz-adv-x="1055" d="M0 1055h1055v-1055h-1055v1055z" />
<glyph unicode="&#xfb01;" horiz-adv-x="1273" d="M72 903v150h168v41q0 197 107.5 302t314.5 105q104 0 182 -25.5t117.5 -57.5t68.5 -85t36 -80.5t15 -74.5h-180q-25 184 -229 184q-131 0 -192.5 -64.5t-61.5 -201.5v-43h260v-150h-260v-903h-178v903h-168zM901 0v1053h180v-1053h-180z" />
<glyph unicode="&#xfb02;" horiz-adv-x="1267" d="M72 903v150h168v20q0 225 100 326.5t326 101.5q31 0 95 -12t87 -12h229v-1477h-180v1161q0 92 -60.5 146.5t-164.5 54.5q-254 0 -254 -225v-84h260v-150h-260v-903h-178v903h-168z" />
<glyph unicode="&#xfb03;" horiz-adv-x="1951" d="M45 901v152h193v198q0 135 55 186.5t201 51.5q57 0 143 -12v-148q-45 4 -96 4q-72 0 -98.5 -29.5t-26.5 -105.5v-145h225v-152h-225v-901h-178v901h-193zM739 901v152h193v198q0 135 55 186.5t201 51.5q57 0 143 -12v-148q-45 4 -96 4q-72 0 -98.5 -29.5t-26.5 -105.5 v-145h225v-152h-225v-901h-178v901h-193zM1581 0v1053h178v-1053h-178zM1581 1206v230h178v-230h-178z" />
<glyph unicode="&#xfb04;" horiz-adv-x="1949" d="M45 901v152h193v198q0 135 55 186.5t201 51.5q57 0 143 -12v-148q-45 4 -96 4q-72 0 -98.5 -29.5t-26.5 -105.5v-145h225v-152h-225v-901h-178v901h-193zM739 901v152h193v198q0 135 55 186.5t201 51.5q57 0 143 -12v-148q-45 4 -96 4q-72 0 -98.5 -29.5t-26.5 -105.5 v-145h225v-152h-225v-901h-178v901h-193zM1581 0v1477h178v-1477h-178z" />
</font>
</defs>
</svg>
